Una 2017 1080p WEB-DL H264 AC3-EVO

Una 2017 1080p WEB-DL H264 AC3-EVO Torrent
Size: 3.1 GB
Language: English
Uploader: showstopper

Download Una 2017 1080p WEB-DL H264 AC3-EVO Torrent torrent video for PC, tablet, MAC, IPhone or Android device.
Una 2017 1080p WEB-DL H264 AC3-EVO Torrent For Torrent download Link. Scroll down!.


MOVIE TRAILER BELLOW.


Una.2017.1080p.WEB-DL.H264.AC3-EVO

ImDb:
http://www.imdb.com/title/tt4799050



Complete name : Una.2017.1080p.WEB-DL.H264.AC3-EVO.mkv
Format : Matroska
Format version : Version 4 / Version 2
File size : 3.15 GiB
Duration : 1 h 30 min
Overall bit rate : 4 996 kb/s
Movie name : EVO
Encoded date : UTC 2017-07-30 23:31:34
Writing application : mkvmerge v6.7.0 ('Back to the Ground') 64bit built on Jan 8 2014 15:10:52
Writing library : libebml v1.3.0 + libmatroska v1.4.1

Video
ID : 2
Format : AVC
Format/Info : Advanced Video Codec
Format profile : [email protected]
Format settings, CABAC : Yes
Format settings, ReFrames : 5 frames
Codec ID : V_MPEG4/ISO/AVC
Duration : 1 h 30 min
Bit rate : 4 513 kb/s
Width : 1 912 pixels
Height : 800 pixels
Display aspect ratio : 2.40:1
Frame rate mode : Constant
Frame rate : 25.000 FPS
Color space : YUV
Chroma subsampling : 4:2:0
Bit depth : 8 bits
Scan type : Progressive
Bits/(Pixel*Frame) : 0.118
Stream size : 2.84 GiB (90%)
Language : English
Default : Yes
Forced : No
Color range : Limited
Color primaries : BT.709
Transfer characteristics : BT.709
Matrix coefficients : BT.709

Audio
ID : 1
Format : AC-3
Format/Info : Audio Coding 3
Format settings, Endianness : Big
Codec ID : A_AC3
Duration : 1 h 30 min
Bit rate mode : Constant
Bit rate : 384 kb/s
Channel(s) : 6 channels
Channel positions : Front: L C R, Side: L R, LFE
Sampling rate : 48.0 kHz
Frame rate : 31.250 FPS (1536 spf)
Bit depth : 16 bits
Compression mode : Lossy
Stream size : 248 MiB (8%)
Language : English
Service kind : Complete Main
Default : Yes
Forced : No

Menu
00:00:00.000 : en:1
00:10:11.880 : en:2
00:19:41.639 : en:3
00:30:02.639 : en:4
00:40:52.358 : en:5
00:50:08.318 : en:6
01:00:01.798 : en:7
01:10:37.078 : en:8
01:19:28.078 : en:9






Click To View Screenshot

Click To View Screenshot

Click To View Screenshot

Una 2017 1080p WEB-DL H264 AC3-EVO Torrent




Hey Friend! Like us!