Vicky Cristina Barcelona 2008 (1080p Bluray x265 HEVC 10bit AAC 3 0 Tigole) [UTR]

Vicky Cristina Barcelona 2008 (1080p Bluray x265 HEVC 10bit AAC 3 0 Tigole) [UTR] Torrent
Size: 2.9 GB
Language: English
Uploader: UTRplus

Download Vicky Cristina Barcelona 2008 (1080p Bluray x265 HEVC 10bit AAC 3 0 Tigole) [UTR] Torrent torrent video for PC, tablet, MAC, IPhone or Android device.
Vicky Cristina Barcelona 2008 (1080p Bluray x265 HEVC 10bit AAC 3 0 Tigole) [UTR] Torrent For Torrent download Link. Scroll down!.


MOVIE TRAILER BELLOW.




Vicky Cristina Barcelona 2008 in 1080p, encoded with x265 in HEVC and AAC 3.0 English, with Chinese and English subtitles!
Encoded using the time consuming 2 pass, 10 bit color at 4000 kbps, from a Blu-ray source, for the highest quality possible.



Media Information

Code:

General
Format : Matroska
Format version : Version 4 / Version 2
File size : 2.90 GiB
Duration : 1 h 36 min
Overall bit rate : 4 294 kb/s
Movie name : Vicky Cristina Barcelona
Encoded date : UTC 2017-11-03 13:19:17
Writing application : mkvmerge v14.0.0 ('Flow') 64bit
Writing library : libebml v1.3.4 + libmatroska v1.4.5

Video
ID : 1
Format : HEVC
Format/Info : High Efficiency Video Coding
Format profile : Main [email protected]@Main
Codec ID : V_MPEGH/ISO/HEVC
Duration : 1 h 36 min
Bit rate : 4 001 kb/s
Width : 1 920 pixels
Height : 1 038 pixels
Display aspect ratio : 1.85:1
Frame rate mode : Constant
Frame rate : 23.976 (24000/1001) FPS
Color space : YUV
Chroma subsampling : 4:2:0
Bit depth : 10 bits
Bits/(Pixel*Frame) : 0.084
Stream size : 2.70 GiB (93%)
Writing library : x265 2.5+22-8db95a1da9f8:[Windows][GCC 7.1.0][64 bit] 10bit
Encoding settings : cpuid=1173503 / frame-threads=3 / numa-pools=8 / wpp / no-pmode / no-pme / no-psnr / no-ssim / log-level=2 / input-csp=1 / input-res=1920x1038 / interlace=0 / total-frames=139168 / level-idc=0 / high-tier=1 / uhd-bd=0 / ref=4 / no-allow-non-conformance / no-repeat-headers / annexb / no-aud / no-hrd / info / hash=0 / no-temporal-layers / open-gop / min-keyint=23 / keyint=250 / bframes=4 / b-adapt=2 / b-pyramid / bframe-bias=0 / rc-lookahead=25 / lookahead-slices=4 / scenecut=40 / no-intra-refresh / ctu=64 / min-cu-size=8 / rect / no-amp / max-tu-size=32 / tu-inter-depth=1 / tu-intra-depth=1 / limit-tu=0 / rdoq-level=2 / dynamic-rd=0.00 / no-ssim-rd / signhide / no-tskip / nr-intra=0 / nr-inter=0 / no-constrained-intra / strong-intra-smoothing / max-merge=3 / limit-refs=3 / limit-modes / me=3 / subme=3 / merange=57 / temporal-mvp / weightp / no-weightb / no-analyze-src-pics / deblock=0:0 / sao / no-sao-non-deblock / rd=4 / no-early-skip / rskip / no-fast-intra / no-tskip-fast / no-cu-lossless / no-b-intra / no-splitrd-skip / rdpenalty=0 / psy-rd=2.00 / psy-rdoq=1.00 / no-rd-refine / analysis-reuse-mode=0 / no-lossless / cbqpoffs=0 / crqpoffs=0 / rc=abr / bitrate=4000 / qcomp=0.60 / qpstep=4 / stats-write=0 / stats-read=2 / cplxblur=20.0 / qblur=0.5 / ipratio=1.40 / pbratio=1.30 / aq-mode=2 / aq-strength=1.00 / cutree / zone-count=0 / no-strict-cbr / qg-size=32 / no-rc-grain / qpmax=69 / qpmin=0 / no-const-vbv / sar=0 / overscan=0 / videoformat=5 / range=0 / colorprim=2 / transfer=2 / colormatrix=2 / chromaloc=0 / display-window=0 / max-cll=0,0 / min-luma=0 / max-luma=1023 / log2-max-poc-lsb=8 / vui-timing-info / vui-hrd-info / slices=1 / opt-qp-pps / opt-ref-list-length-pps / no-multi-pass-opt-rps / scenecut-bias=0.05 / no-opt-cu-delta-qp / no-aq-motion / no-hdr / no-hdr-opt / no-dhdr10-opt / analysis-reuse-level=5 / scale-factor=0 / refine-intra=0 / refine-inter=0 / refine-mv=0 / no-limit-sao / ctu-info=0
Default : Yes
Forced : No

Audio
ID : 2
Format : AAC
Format/Info : Advanced Audio Codec
Format profile : LC
Codec ID : A_AAC
Duration : 1 h 36 min
Bit rate : 254 kb/s
Channel(s) : 3 channels
Channel positions : Front: L C R
Sampling rate : 48.0 kHz
Frame rate : 46.875 FPS (1024 spf)
Compression mode : Lossy
Delay relative to video : 20 ms
Stream size : 176 MiB (6%)
Language : English
Default : Yes
Forced : No

Text #1
ID : 3
Format : PGS
Muxing mode : zlib
Codec ID : S_HDMV/PGS
Codec ID/Info : Picture based subtitle format used on BDs/HD-DVDs
Duration : 1 h 31 min
Bit rate : 54.6 kb/s
Count of elements : 2502
Stream size : 35.7 MiB (1%)
Language : English
Default : No
Forced : No

Text #2
ID : 4
Format : PGS
Muxing mode : zlib
Codec ID : S_HDMV/PGS
Codec ID/Info : Picture based subtitle format used on BDs/HD-DVDs
Duration : 1 h 32 min
Bit rate : 41.9 kb/s
Count of elements : 2698
Stream size : 27.7 MiB (1%)
Language : Chinese
Default : No
Forced : No

Menu
00:00:00.000 : en:Chapter 01
00:05:09.183 : en:Chapter 02
00:15:00.316 : en:Chapter 03
00:22:44.237 : en:Chapter 04
00:32:05.924 : en:Chapter 05
00:40:17.873 : en:Chapter 06
00:48:07.009 : en:Chapter 07
00:55:43.798 : en:Chapter 08
01:02:37.128 : en:Chapter 09
01:12:42.066 : en:Chapter 10
01:20:48.510 : en:Chapter 11
01:26:53.458 : en:Chapter 12


Source Information

Code:

Release : Vicky.Cristina.Barcelona.2008.Blu-ray.1080P.VC-1.LPCM3.0-HDRoad
Complete name : Vicky_Cristina_Barcelona_t00.mkv
File size : 18.6 GiB
Duration : 1 h 36 min
Overall bit rate : 27.6 Mb/s


Vicky Cristina Barcelona 2008 (1080p Bluray x265 HEVC 10bit AAC 3 0 Tigole) [UTR] Torrent




Hey Friend! Like us!